Ragini MMS 2 2014 Hindi Full Movie Torrent Download

Ragini MMS 2 2014 Hollywood Full Movie Torrent Download,Ragini MMS 2 2014 Full Movie Torrent Download,Ragini MMS 2 2014 torrent download Full Movie ,Ragini MMS 2 2014 download Full Movie torrent , Ragini MMS 2 2014 english Full Movie torrent download,Ragini MMS 2 2014 full movie Utorrent download,Ragini MMS 2 2014 utorrent download Full Movie

Format : AVI
Format/Info : Audio Video Interleave
File size : 676 MiB
Duration : 1h 58mn
Overall bit rate : 799 Kbps

Video
ID : 0
Format : MPEG-4 Visual
Format profile : Advanced Simple@L5
Format settings, BVOP : 2
Format settings, QPel : No
Format settings, GMC : No warppoints
Format settings, Matrix : Default (H.263)
Codec ID : XVID
Codec ID/Hint : XviD
Duration : 1h 58mn
Bit rate : 694 Kbps
Width : 640 pixels
Height : 288 pixels
Display aspect ratio : 2.222
Frame rate : 25.000 fps
Color space : YUV
Chroma subsampling : 4:2:0
Bit depth : 8 bits
Scan type : Progressive
Compression mode : Lossy
Bits/(Pixel*Frame) : 0.151
Stream size : 586 MiB (87%)
Writing library : XviD 1.2.1 (UTC 2008-12-04)

Audio
ID : 1
Format : MPEG Audio
Format version : Version 1
Format profile : Layer 3
Codec ID : 55
Codec ID/Hint : MP3
Duration : 1h 58mn
Source duration : 1h 58mn
Bit rate mode : Constant
Bit rate : 96.0 Kbps
Channel count : 2 channels
Sampling rate : 48.0 KHz
Compression mode : Lossy
Stream size : 81.1 MiB (12%)